Country love songs 2020

2) We love to sing Adele and Elvis. Both Adele and Elvis Presley have 5 songs in the top 100 English songs sung at Singa during the first half of 2020.. 3) Dance Monkey and Someone You Loved could be on their way to modern karaoke classics. These mega hits by Tones and I and Lewis Capaldi are the only 2019-2020 songs that made it to the top 10, which is otherwise heavily populated by songs ...Find 90s country tracks, artists, and albums. Find the latest in 90s country music at Last.fm. Right now, Florida Georgia Line are at a staggering 14 straight weeks atop Billboard's Hot Country Songs chart with "H.O.L.Y.," their single that alludes to an orgasm. But long before the ...There's only one thing that beats a good country music marathon—and that's one exclusive to country love songs.The genre certainly bares no shortage of gushy lyrics set to twangy, guitar ...

The Top 43 Country Wedding Songs for Your First Dance. ... From Taylor Swift to Tim McGraw to Kacey Musgraves, pretty much every country legend has penned a swoon-worthy love song. With lyrics like "Oh, if all I got is your hand in my hand / Baby, I could die a happy man" (Thomas Rhett) and "'Cause I'm keeping you forever and for ...best country and love songs ever...2004. 2003. 2002. Info. i. Hot Country Songs. Annual ranking of the most popular country songs, based on radio airplay audience impressions as measured by Nielsen Music, sales data as compiled by ...Their latest release, "10,000 Hours," is a romantic collaboration with Justin Bieber, and it will likely continue their rise to country stardom this year. "Soon You'll Get Better (feat. Dixie Chicks)" by Taylor Swift STREAM IT The Dixie Chicks' long-awaited return to the country airwaves finally happened in 2020 with their new album Gaslighter.Country music - Finding Midnight Stroll - Parker Morton - CHILL MUSIC - Brunaa Music (2Hrs) | เพลงเปียโน เพลงกล่อมนอน เพลงนั่งฟัง ... From love ballads to upbeat hits, there are all sorts of songs to choose from to create your perfect anniversary song playlist. To help with your search, we've compiled all the best anniversary songs and lyrics so even if you aren't musically inclined, you can express your love through song.May 21, 2020 · best country and love songs ever... Listeners' Top 100: Love Songs. The Top 100 listener-rated Love Songs. Love Is a Bummer. Pop & alternative rock, for the sad, the cynical and the scorned. Lovers Rock Reggae. Smooth, mellow, reggae sounds with an emphasis on love and romance. Magic Sunny Love Affair. Our most romantic adult pop hits.Listen to the Best Country Songs of 2020 So Far playlist on Spotify right here. ... The Dallas, Texas native reminisces on forever lost love and contemplates driving his car into a lake ("But ...50 Best Country Love Songs 1. "You're Still The One" by Shania Twain Written and recorded by Canadian singer-songwriter Shania Twain, this song became Twain's first top 10 hit in the U.S. in 1998....As always country music provides us with the soundtrack to our lives, so here are some of the best country lyrics from some contemporary country musicians to express how you feel in a new relationship or even to caption your cute couple's photos with on Instagram! 1. "Somebody's Got Me"- Mitchell Tenpenny. 2. "Redneck Love Song ...We recommend you to check other playlists or our favorite music charts. If you enjoyed listening to this one, maybe you will like: Country 2022 Love Songs - ...Keith Urban and Chris Stapleton are just some of the country artists that released breathtaking love songs in 2020. "God Whispered Your Name" - Keith Urban Who could forget Keith Urban and his absolutely breathtaking single "God Whispered Your Name"? The upbeat ballad was written by James Slater, Shy Carter, Micah Carter, and Chris August.May 21, 2020 · best country and love songs ever... Country music - Finding Midnight Stroll - Parker Morton - CHILL MUSIC - Brunaa Music (2Hrs) | เพลงเปียโน เพลงกล่อมนอน เพลงนั่งฟัง ... The 25 Best Rock Love Songs of All Time. Not including: Lady in Red. Bold, electrifying, and rebellious, rock and roll is all about defiance and a classic rock ballad is no exception. Rather than ...Their latest release, "10,000 Hours," is a romantic collaboration with Justin Bieber, and it will likely continue their rise to country stardom this year. "Soon You'll Get Better (feat. Dixie Chicks)" by Taylor Swift STREAM IT The Dixie Chicks' long-awaited return to the country airwaves finally happened in 2020 with their new album Gaslighter.New Releases Now - Sign up to find top new songs of 2022 and videos from the best new 2022 albums! Discover and listen to new music releases and 2022's best new album releases this week and every week here. Hear the hot songs of the year and all important new cd releases of 2022 in one place. Browse all new releases by genre, album or record label.Listen to the Best Country Songs of 2020 So Far playlist on Spotify right here. ... The Dallas, Texas native reminisces on forever lost love and contemplates driving his car into a lake ("But ...Below are 10 of our favorite new country songs that were released in 2020, including artists like Sam Hunt, Luke Bryan, Brantley Gilbert, Ingrid Andress, and more. Hard To Forget - Sam Hunt Nobody But You - Blake Shelton One of Them Girls - Lee Brice Close - Jade Eagleson One Margarita - Luke Bryan Beer Can't Fix ft. Jon Pardi - Thomas RhettCountry music - Finding Midnight Stroll - Parker Morton - CHILL MUSIC - Brunaa Music (2Hrs) | เพลงเปียโน เพลงกล่อมนอน เพลงนั่งฟัง ... Listen to the Best Country Songs of 2020 So Far playlist on Spotify right here. ... The Dallas, Texas native reminisces on forever lost love and contemplates driving his car into a lake ("But ...List of #1 Country Singles for 2015. The list on this page is for all #1 hit Country singles for 2015 using proprietary methods. The results in this chart are not affiliated with any mainstream or commercial chart and may not reflect charts seen elsewhere.NPR's 100 Best Songs Of 2020, Ranked The great songs of 2020 were as abundant as the rest of the year was a drag. Think of these 100 jams as a silver linings playlist for the worst year of our ...The Best Love Songs of 2020 (So Far) Romance takes many forms in this year's new releases. By Natalie Maher. Jan 31, 2020 YouTube. As another year kicks off, we're rounding up the best love ...A mood boosting list of 2020's happiest songs, featuring "Intentions" by Justin Bieber, "What a Man Gotta Do" by Jonas Brothers, "Dynamite" by BTS, and more.

REM GENRE "Country" REM DATE "2020" REM COMMENT "MC-Rip, Compilation, Not On Label, Russia" PERFORMER "Various Artists" TITLE "Country Love Songs" FILE "01. Various - Country Love Songs.flac" WAVE TRACK 01 AUDIO TITLE "01. I Could Use a Love Song" PERFORMER "Maren Morris" INDEX 01 00:00:00 TRACK 02 AUDIO TITLE "02. Who I Am with You" PERFORMER ...

best country and love songs ever...

50 Years of Music It’s KEXP’s 50th anniversary, and to celebrate we’re taking an in-depth look at each year of our history – from 1972 to 2022.All year long we’ll be bouncing around the timeline, pulling out the best music from a different year each week – both the songs we all know and love and music we might’ve missed the first time around. best country and love songs ever...Houses for sale in thunder bay ontarioAs much as country artists sing about the joys of falling in love and finding that special someone, they've also released some of the best songs about breaking apart and moving on. From iconic ...Aug 23, 2010 · Funny Country Songs 50) Gotta Have My Java – Bryan White. Bryan White is more known for his heartfelt country songs about love, loneliness and having a good time. In 2009 the former country star came back with a new set of songs including the fun little ditty Gotta Have My Java. The song is an ode to the dark brown drink so many need each ... Country music - Finding Midnight Stroll - Parker Morton - CHILL MUSIC - Brunaa Music (2Hrs) | เพลงเปียโน เพลงกล่อมนอน เพลงนั่งฟัง ...

best country and love songs ever...

Top 100 Country Songs of 2020: 26-100 ... Not all of these songs were released in 2020, however they might be on the list due to gaining traction and popularity in 2020. 100. Stay by Giovannie and the Hired Guns 99. October by Kody West 98. Bomb's Away by Chris Colston. 97. We Didn't Have Much by Justin Moore 96. Hate You Like I Love You by ...Although evermore was released in 2020, the deluxe edition released in 2021 features two new songs including "Right Where You Left Me"—a string-heavy, folksy song about struggling to move on ...In "Blinding Lights," the Weeknd sings about rekindling a lost love as part of his 2020 album "After Hours." The song became the singer's fifth Billboard Hot 100 #1 single, with Variety praising it as indisputably one of the landmark songs of 2020, with a "hook straight out of 1985." You may also like: Top 100 country songs of all ...

Music tastes may change, but the emotion behind them hasn't. Here are the most romantic modern love songs to listen to in 2020.Some songs become standouts simply because of the movies they're featured in, and "Kiss Me" is one of those tunes. The late '90s hit from Sixpence None the Richer became synonymous with romance after it appeared in the Freddie Prinze Jr.-led romcom, She's All That, and honestly—as much as we love Prinze Jr.'s onscreen chemistry with Rachel Leigh Cook—the film would have been lost without it.

From tracks on falling in love with your soulmate to tunes about unrequited love, here are 20 of the top country love songs of all time. 20. "I Told You So," Randy Travis. AdvertisementCountry Top 50. SONG / ALBUM TITLE. ARTIST. DURATION. Never Wanted To Be That Girl. Carly Pearce & Ashley McBryde • Songs With Friends: Duets & More 2021. Songs With Friends: Duets & More 2021. Carly Pearce & Ashley McBryde. 03m 34sec.

Keep an eye out for the most popular song throughout the list, Can't Help Falling In Love. There are many versions of this classic song that will be played at weddings in 2020, thanks to the film Crazy Rich Asians. So without further ado here are the hottest 100 wedding songs for 2020. 100: The Luckiest - Ben FoldsWe recommend you to check other playlists or our favorite music charts. If you enjoyed listening to this one, maybe you will like: Most Listened Country Love...Please try again later. 3. There Goes My Life by Kenny Chesney. There goes my life is one of the best country songs about daughters. This is a beautiful song about a high school football star who got his girlfriend pregnant, and he thought his life was over because all his dreams were taken away.

The Best Hip-Hop Love Songs. By Brendan Frederick, Brian Josephs, Grant Rindner. Feb 14, 2020. Share This Story. COMMENT Image via Getty. Love has been at hip-hop's center since its birth. ...REM GENRE "Country" REM DATE "2020" REM COMMENT "MC-Rip, Compilation, Not On Label, Russia" PERFORMER "Various Artists" TITLE "Country Love Songs" FILE "01. Various - Country Love Songs.flac" WAVE TRACK 01 AUDIO TITLE "01. I Could Use a Love Song" PERFORMER "Maren Morris" INDEX 01 00:00:00 TRACK 02 AUDIO TITLE "02. Who I Am with You" PERFORMER ...

Crossword jam answers 2021

Top Country Songs Playlist 2022 Hottest Country Songs of the Moment 2022 Country Music Music is life, that's why our hearts have beats! Top Tracks we select based on Music Popularity over Youtube and Radios and also collecting data from Billboard and Charts. If u like our playlist, please save it. This playlist updated weekly so stay with us for more new country hit songs 2022 We will continue ...Jul 08, 2020 · It’s Your Love by Tim McGraw & Faith Hill. The most powerful country couple of all time sings this love ballad. Let them serenade you straight into a happy, healthy marriage of your own. Listen to it here! Margaritaville by Jimmy Buffett. It’s not a party without country-rock singer Jimmy Buffett. The year 2020 was unlike any other, to say the least—so it makes sense that new faces had an unusually outsized impact across the world. Compton's latest star Roddy Ricch emerged seemingly out of nowhere as a dominant force, with his single "The Box" picking up over 455 million streams worldwide and topping Apple Music charts in 37 countries.Listeners' Top 100: Love Songs. The Top 100 listener-rated Love Songs. Love Is a Bummer. Pop & alternative rock, for the sad, the cynical and the scorned. Lovers Rock Reggae. Smooth, mellow, reggae sounds with an emphasis on love and romance. Magic Sunny Love Affair. Our most romantic adult pop hits.2004. 2003. 2002. Info. i. Hot Country Songs. Annual ranking of the most popular country songs, based on radio airplay audience impressions as measured by Nielsen Music, sales data as compiled by ...As always country music provides us with the soundtrack to our lives, so here are some of the best country lyrics from some contemporary country musicians to express how you feel in a new relationship or even to caption your cute couple's photos with on Instagram! 1. "Somebody's Got Me"- Mitchell Tenpenny. 2. "Redneck Love Song ...Watch for Jones to break through the mainstream country ceiling in 2020. - C.H. ... to the man who inspired her love for country music is a potent example of Kozak's talent demands your ...Country songs happen to be very romantic. And this gesture will make him fall more in love with you. Jade Eagleson - Still Gonna Be You Chad Brownlee - Forever's Gotta Start Somewhere Sam Riggs - Story of You and Me Trea Landon - Loved By A Country Boy Luke Combs - Better Together Cody Johnson - On My Way to You Hardy - I'll Quit Lovin' YouCountry love lyrics: When I picked her up for our first date. I told her I'd be there at eight. And she came down the stairs at eight-thirty. She said I'm sorry that I took so long. Didn't like a thing that I tried on. But let me tell you son she sure looked pretty. Yeah she'll take her time but I don't mind.Top Country Songs Playlist 2022 Hottest Country Songs of the Moment 2022 Country Music Music is life, that's why our hearts have beats! Top Tracks we select based on Music Popularity over Youtube and Radios and also collecting data from Billboard and Charts. If u like our playlist, please save it. This playlist updated weekly so stay with us for more new country hit songs 2022 We will continue ...So here is to best wedding songs 2020: the first dance, last dance, and every dance in between. (And no, we didn't edit these to be all sappy love songs. We picked for stuff that's gonna make you wanna bust a move.) The Best Wedding Songs 2020. Before I Let Go—Beyonce From The Album: Homecoming: The Live AlbumPopular Country Love Songs 2021 Romantic Country Music Ever Country Love Song CollectionPopular Country Love Songs 2021 Romantic Country Music Ever C...In "Blinding Lights," the Weeknd sings about rekindling a lost love as part of his 2020 album "After Hours." The song became the singer's fifth Billboard Hot 100 #1 single, with Variety praising it as indisputably one of the landmark songs of 2020, with a "hook straight out of 1985." You may also like: Top 100 country songs of all ...Feb 13, 2007 · 62. “Love You Inside Out” – Bee Gees. 61. “You’re the One That I Want” – John Travolta and Olivia Newton-John. 60. “How Deep Is Your Love” – The Bee Gees. 59. “You Don’t ... We recommend you to check other playlists or our favorite music charts. If you enjoyed listening to this one, maybe you will like: Most Listened Country Love...Only the top country music love songs get listed. Florida Georgia Line Always Gonna Love You 7 months ago Dan + Shay You 8 months ago Parmalee Take My Name 9 months ago Darius Rucker My Masterpiece 11 months ago Luke Combs Forever After All 11 months ago Adam Doleac Another 1 year ago Chuck Wicks Old With You 1 year ago Ryan Hurd Chasing After You

The year 2020 was unlike any other, to say the least—so it makes sense that new faces had an unusually outsized impact across the world. Compton's latest star Roddy Ricch emerged seemingly out of nowhere as a dominant force, with his single "The Box" picking up over 455 million streams worldwide and topping Apple Music charts in 37 countries.A direct criticism of songs that objectify and disrespect women, the catchy tune rocked to #1 on the Billboard Country Airplay chart after its July 2014 release. 22 of 40 "Girl Crush," Little Big TownIt’s You – Lewis Brice Meant to Be – Bebe Rexha Slow Hands – Niall Horan Can I Be Him – James Arthur Strip It Down – Luke Bryan I Would For You – Lauren Duski I’m Comin’ Over – Chris Young Middle Of A Memory – Cole Swindell Home Sweet – Russell Dickerson Made For You – Jake Owen May 21, 2020 · best country and love songs ever... Featuring the best love songs, new and old, Country Love mixes your favorites ensuring that this Valentine's Day has that perfect Country feel. As you get your Valentine's Day playlist in order, here are 10 perfect songs for you to keep it Country all day long.

Popular Country Love Songs 2021 Romantic Country Music Ever Country Love Song CollectionPopular Country Love Songs 2021 Romantic Country Music Ever C...Keep an eye out for the most popular song throughout the list, Can't Help Falling In Love. There are many versions of this classic song that will be played at weddings in 2020, thanks to the film Crazy Rich Asians. So without further ado here are the hottest 100 wedding songs for 2020. 100: The Luckiest - Ben FoldsNov 14, 2020. Music is an important element of a wedding celebration. Country Music for Your Wedding Ceremony. ... To help save you some time, I have compiled a list of some of the best love songs that country music has to offer. You should choose a song with your partner—one that speaks to both of you and the kind of relationship that you have.Whether you want to amp up your cocktail hour with a few square dances or use banjos and fiddles to get your guests onto the dance floor at your reception, you're going to need the best country wedding songs to make your playlist pop.From Taylor Swift and Dolly Parton to Tim McGraw and Keith Urban, we've stacked this list of country wedding songs with slow dance-worthy tracks, upbeat ...List of #1 Country Singles for 2015. The list on this page is for all #1 hit Country singles for 2015 using proprietary methods. The results in this chart are not affiliated with any mainstream or commercial chart and may not reflect charts seen elsewhere.Best 2020 Country Drinking Songs As a foreword, we didn't put much thought into the arrangement of this list. Take it as you will, but if you find yourself with a whiskey or beer in hand and you're joining us for Happy Hour, tell us to turn up the volume on these amazing awesome country tunes.There are many country artists who are Christian and they pour their heart and soul into their songs as they sing about God, Jesus and faith. Carrie Underwood, Jamey Johnson, Alabama, Tim McGraw, Vince Gill and countless other artists have brought amazing Christian songs to the country music world. There are more than 12 awesome Christian country songs, but these are some of my favorites.Only the top country music love songs get listed. Florida Georgia Line Always Gonna Love You 7 months ago Dan + Shay You 8 months ago Parmalee Take My Name 9 months ago Darius Rucker My Masterpiece 11 months ago Luke Combs Forever After All 11 months ago Adam Doleac Another 1 year ago Chuck Wicks Old With You 1 year ago Ryan Hurd Chasing After YouSep 27, 2020 · Best Upbeat Funeral Songs. #1 The Best by Tina Turner. #2 I Hope You Dance by Lee Ann Womack. #3 You’re Gonna Miss Me When I’m Gone by Anna Kendrick. #4 What a Wonderful World by Louis Armstrong. #5 I’ve Had the Time of My Life by Bill Medley and Jennifer Warnes. #6 You Are the Sunshine of My Life by Stevie Wonder.

1. "Small Town, USA" by Justin Moore. "Everybody knows me and I know them, and I believe that's the way we were supposed to live.". 2. "Thank God for Hometowns" by Carrie Underwood. "'Cause when you're lost out in this crazy world, you got somewhere to go and get found — thank God for hometowns.". 3.The 25 Best Rock Love Songs of All Time. Not including: Lady in Red. Bold, electrifying, and rebellious, rock and roll is all about defiance and a classic rock ballad is no exception. Rather than ...

A country or state (sometimes called nation) is a distinct territorial body or political entity. It may be an independent sovereign state or part of a larger state, as a non-sovereign or formerly sovereign political division, a physical territory with a government, or a geographic region associated with sets of previously independent or differently associated peoples with distinct political ... A mood boosting list of 2020's happiest songs, featuring "Intentions" by Justin Bieber, "What a Man Gotta Do" by Jonas Brothers, "Dynamite" by BTS, and more.Their latest release, "10,000 Hours," is a romantic collaboration with Justin Bieber, and it will likely continue their rise to country stardom this year. "Soon You'll Get Better (feat. Dixie Chicks)" by Taylor Swift STREAM IT The Dixie Chicks' long-awaited return to the country airwaves finally happened in 2020 with their new album Gaslighter.Whether you want to amp up your cocktail hour with a few square dances or use banjos and fiddles to get your guests onto the dance floor at your reception, you're going to need the best country wedding songs to make your playlist pop.From Taylor Swift and Dolly Parton to Tim McGraw and Keith Urban, we've stacked this list of country wedding songs with slow dance-worthy tracks, upbeat ...Country music - Finding Midnight Stroll - Parker Morton - CHILL MUSIC - Brunaa Music (2Hrs) | เพลงเปียโน เพลงกล่อมนอน เพลงนั่งฟัง ... Featuring the best love songs, new and old, Country Love mixes your favorites ensuring that this Valentine's Day has that perfect Country feel. As you get your Valentine's Day playlist in order, here are 10 perfect songs for you to keep it Country all day long.The Top 43 Country Wedding Songs for Your First Dance. ... From Taylor Swift to Tim McGraw to Kacey Musgraves, pretty much every country legend has penned a swoon-worthy love song. With lyrics like "Oh, if all I got is your hand in my hand / Baby, I could die a happy man" (Thomas Rhett) and "'Cause I'm keeping you forever and for ...The 100 Best Songs of 2020. ... Whether portraying a complicated love or something more sinister, it's an arresting vision of trouble in paradise. ... lightly country-fried rock, and Oscar ...We recommend you to check other playlists or our favorite music charts. If you enjoyed listening to this one, maybe you will like: Country 2022 Love Songs - ...Keep an eye out for the most popular song throughout the list, Can't Help Falling In Love. There are many versions of this classic song that will be played at weddings in 2020, thanks to the film Crazy Rich Asians. So without further ado here are the hottest 100 wedding songs for 2020. 100: The Luckiest - Ben Folds2020 is full of great new love songs, these are't just ballads. Between Dua Lipa, Allen Stone, and John Legend, these are the most romantic songs to listen to this year so far.Dell won t turn onFeb 13, 2007 · 62. “Love You Inside Out” – Bee Gees. 61. “You’re the One That I Want” – John Travolta and Olivia Newton-John. 60. “How Deep Is Your Love” – The Bee Gees. 59. “You Don’t ... May 21, 2020 · best country and love songs ever... 3. Hailey Whitters. Hailey Whitters is one of the most exciting voices in country music now. The Iowa-born, Nashville-based singer/songwriter released one of the best country songs of 2019 in ...2020 In Review December 14, 2020 2:21 PM By Chris DeVille 0 This column has reached the end of its seventh(!) year, and the time has come once again to run down the Top 40 pop songs of 2020.Hot Country Songs and Country Airplay are charts that rank the top-performing country music songs in the United States, published by Billboard magazine. Hot Country Songs ranks songs based on digital downloads, streaming, and airplay not only from country stations but from stations of all formats, a methodology introduced in 2012. Country Airplay, which began being published in 2012, is based ...Simply put, this year has been insane. While you'd think every song to come out of 2020 would be super sad or angry, it's actually been a breeding ground for exceptional new love songs.Best 2020 Country Drinking Songs As a foreword, we didn't put much thought into the arrangement of this list. Take it as you will, but if you find yourself with a whiskey or beer in hand and you're joining us for Happy Hour, tell us to turn up the volume on these amazing awesome country tunes.We recommend you to check other playlists or our favorite music charts. If you enjoyed listening to this one, maybe you will like: Most Listened Country Love...TOP 100 HARD ROCK SONGS OF 2020. To say that 2020 was a year like any other would be a vast understatement. The TOP 100 HARD ROCK SONGS OF 2020 is not only a musical recap of the year, but also a reflection of these unprecedented times. As has always been the tradition, our goal is to give readers the greatest possible variety of music.TOP 100 HARD ROCK SONGS OF 2020. To say that 2020 was a year like any other would be a vast understatement. The TOP 100 HARD ROCK SONGS OF 2020 is not only a musical recap of the year, but also a reflection of these unprecedented times. As has always been the tradition, our goal is to give readers the greatest possible variety of music.It's by no means an all-encompassing list, just a little something to get your feet wet. Here's 32 Texas country songs you should be listening to right now. 1. Whiskey Myers - "Houston County Sky". 2. Kolby Cooper - "If I Still Had It". 3. Cody Johnson - "Dear Rodeo". 4.We recommend you to check other playlists or our favorite music charts. If you enjoyed listening to this one, maybe you will like: Country 2022 Love Songs - ...Keith Urban and Chris Stapleton are just some of the country artists that released breathtaking love songs in 2020. "God Whispered Your Name" - Keith Urban Who could forget Keith Urban and his absolutely breathtaking single "God Whispered Your Name"? The upbeat ballad was written by James Slater, Shy Carter, Micah Carter, and Chris August.Float valve instapot, Craigslist pets ri, Casablanca t shirtMoose plowPaper plate caddyJust in time for Valentine's Day, here's our list of the best country love song lyrics to ever be sung on God's green earth. The sort of country songs that will make you grab your man (or lady ...

Apr 18, 2022 · Jade Eagleson – Still Gonna Be You Chad Brownlee – Forever’s Gotta Start Somewhere Sam Riggs – Story of You and Me Trea Landon – Loved By A Country Boy Luke Combs – Better Together Cody Johnson – On My Way to You Hardy – I’ll Quit Lovin’ You iTunes Top New Country Songs. Chart of the most popular and best selling new country songs of May 2022 on the iTunes country chart. For a song to be listed below it must have a release date no older than two weeks from the current date and it must rank among the top 200 best selling country songs.Apr 18, 2022 · Jade Eagleson – Still Gonna Be You Chad Brownlee – Forever’s Gotta Start Somewhere Sam Riggs – Story of You and Me Trea Landon – Loved By A Country Boy Luke Combs – Better Together Cody Johnson – On My Way to You Hardy – I’ll Quit Lovin’ You A country or state (sometimes called nation) is a distinct territorial body or political entity. It may be an independent sovereign state or part of a larger state, as a non-sovereign or formerly sovereign political division, a physical territory with a government, or a geographic region associated with sets of previously independent or differently associated peoples with distinct political ...

2020 In Review December 14, 2020 2:21 PM By Chris DeVille 0 This column has reached the end of its seventh(!) year, and the time has come once again to run down the Top 40 pop songs of 2020.A country or state (sometimes called nation) is a distinct territorial body or political entity. It may be an independent sovereign state or part of a larger state, as a non-sovereign or formerly sovereign political division, a physical territory with a government, or a geographic region associated with sets of previously independent or differently associated peoples with distinct political ... There's only one thing that beats a good country music marathon—and that's one exclusive to country love songs.The genre certainly bares no shortage of gushy lyrics set to twangy, guitar ...🔴 YouTube Playlist: https://bit.ly/2RJSmeD - Watch the full music videos here 👀 Spotify Playlist: https://spoti.fi/32yi105 - Stream the full tracks here ...Country music - Finding Midnight Stroll - Parker Morton - CHILL MUSIC - Brunaa Music (2Hrs) | เพลงเปียโน เพลงกล่อมนอน เพลงนั่งฟัง ... "I Swear" became a hit for country music singer John Michael Montgomery in 1993 - spending four weeks at No. 1 on the Billboard US Hot Country Singles chart and later crossing over to pop radio.. The song is a ballad wherein a man promises the woman he loves that he will always love her. "I swear like the shadow that's by your side.

REM GENRE "Country" REM DATE "2020" REM COMMENT "MC-Rip, Compilation, Not On Label, Russia" PERFORMER "Various Artists" TITLE "Country Love Songs" FILE "01. Various - Country Love Songs.flac" WAVE TRACK 01 AUDIO TITLE "01. I Could Use a Love Song" PERFORMER "Maren Morris" INDEX 01 00:00:00 TRACK 02 AUDIO TITLE "02. Who I Am with You" PERFORMER ...best country and love songs ever...List of #1 Country Singles for 2010. The list on this page is for all #1 hit Country singles for 2010 using proprietary methods. The results in this chart are not affiliated with any mainstream or commercial chart and may not reflect charts seen elsewhere.The Top 43 Country Wedding Songs for Your First Dance. ... From Taylor Swift to Tim McGraw to Kacey Musgraves, pretty much every country legend has penned a swoon-worthy love song. With lyrics like "Oh, if all I got is your hand in my hand / Baby, I could die a happy man" (Thomas Rhett) and "'Cause I'm keeping you forever and for ...🔴 YouTube Playlist: https://bit.ly/2RJSmeD - Watch the full music videos here 👀 Spotify Playlist: https://spoti.fi/32yi105 - Stream the full tracks here ...

Tilley mens hats

Listeners' Top 100: Love Songs. The Top 100 listener-rated Love Songs. Love Is a Bummer. Pop & alternative rock, for the sad, the cynical and the scorned. Lovers Rock Reggae. Smooth, mellow, reggae sounds with an emphasis on love and romance. Magic Sunny Love Affair. Our most romantic adult pop hits.

Wood serving tray with handles
  1. Although evermore was released in 2020, the deluxe edition released in 2021 features two new songs including "Right Where You Left Me"—a string-heavy, folksy song about struggling to move on ...It's Your Love - Tim McGraw and Faith Hill Remember When - Alan Jackson Mama He's Crazy - The Judds Little Moments - Brad Paisley Still the One - Shania Twain I Will Always Love You - Dolly Parton Ring of Fire - Johnny Cash Crazy - Patsy Cline Always On My Mind - Willie Nelson When I Said I Do - Clint Black and Lisa Hartman BlackSo, I love country music. My kids love country music. I'm a Jersey girl daydreaming of big trucks and warm days and wrap around porches. Looking for clean country songs.. That being said, not all country songs for kids are made equal. Take, Thomas Rhett's T-Shirt. Or, Old Dominion's Hotel Key. Yes, crazy, crazy catchy.TOP 100 HARD ROCK SONGS OF 2020. To say that 2020 was a year like any other would be a vast understatement. The TOP 100 HARD ROCK SONGS OF 2020 is not only a musical recap of the year, but also a reflection of these unprecedented times. As has always been the tradition, our goal is to give readers the greatest possible variety of music.Nov 14, 2020. Music is an important element of a wedding celebration. Country Music for Your Wedding Ceremony. ... To help save you some time, I have compiled a list of some of the best love songs that country music has to offer. You should choose a song with your partner—one that speaks to both of you and the kind of relationship that you have.The 50 Best Red Dirt Texas Country Songs Amy McCarthy and Kelly Dearmore February 16, 2015 8:32AM On their own, the words "Best," Texas" and "Country" are easy to define, even seemingly innocuous ...A direct criticism of songs that objectify and disrespect women, the catchy tune rocked to #1 on the Billboard Country Airplay chart after its July 2014 release. 22 of 40 "Girl Crush," Little Big TownNew Releases Now - Sign up to find top new songs of 2022 and videos from the best new 2022 albums! Discover and listen to new music releases and 2022's best new album releases this week and every week here. Hear the hot songs of the year and all important new cd releases of 2022 in one place. Browse all new releases by genre, album or record label.
  2. 1. "Small Town, USA" by Justin Moore. "Everybody knows me and I know them, and I believe that's the way we were supposed to live.". 2. "Thank God for Hometowns" by Carrie Underwood. "'Cause when you're lost out in this crazy world, you got somewhere to go and get found — thank God for hometowns.". 3.From Taylor Swift and Bon Iver's "Exile" to Meek Mill and Roddy Ricch's "Letter to Nipsey," this is our running list of the best sad songs of 2020. "Flawed" - Wale ft. Gunna1. "Small Town, USA" by Justin Moore. "Everybody knows me and I know them, and I believe that's the way we were supposed to live.". 2. "Thank God for Hometowns" by Carrie Underwood. "'Cause when you're lost out in this crazy world, you got somewhere to go and get found — thank God for hometowns.". 3.Nov 14, 2020. Music is an important element of a wedding celebration. Country Music for Your Wedding Ceremony. ... To help save you some time, I have compiled a list of some of the best love songs that country music has to offer. You should choose a song with your partner—one that speaks to both of you and the kind of relationship that you have.Country music - Finding Midnight Stroll - Parker Morton - CHILL MUSIC - Brunaa Music (2Hrs) | เพลงเปียโน เพลงกล่อมนอน เพลงนั่งฟัง ...5 Best New Love Songs of 2020 You Need to Send to Your Crush. From slow jams to dance-y bops and beyond! By Tamara Fuentes. Jan 18, 2020 From mix tapes to fun playlists, love songs have been one ...
  3. So here is to best wedding songs 2020: the first dance, last dance, and every dance in between. (And no, we didn't edit these to be all sappy love songs. We picked for stuff that's gonna make you wanna bust a move.) The Best Wedding Songs 2020. Before I Let Go—Beyonce From The Album: Homecoming: The Live AlbumAlthough evermore was released in 2020, the deluxe edition released in 2021 features two new songs including "Right Where You Left Me"—a string-heavy, folksy song about struggling to move on ...Listeners' Top 100: Love Songs. The Top 100 listener-rated Love Songs. Love Is a Bummer. Pop & alternative rock, for the sad, the cynical and the scorned. Lovers Rock Reggae. Smooth, mellow, reggae sounds with an emphasis on love and romance. Magic Sunny Love Affair. Our most romantic adult pop hits.How tall is 40 inches in feet
  4. Words that start with joKeith Urban and Chris Stapleton are just some of the country artists that released breathtaking love songs in 2020. "God Whispered Your Name" - Keith Urban Who could forget Keith Urban and his absolutely breathtaking single "God Whispered Your Name"? The upbeat ballad was written by James Slater, Shy Carter, Micah Carter, and Chris August.We recommend you to check other playlists or our favorite music charts. If you enjoyed listening to this one, maybe you will like: Country 2022 Love Songs - ...May 21, 2020 · best country and love songs ever... Last Played Top Songs New Songs. Last Played. Mamas (Mother's Day) By Anne Wilson (w/ Hillary Scott) 8 Minutes Ago. House Of The Lord. By Phil Wickham. 11 Minutes Ago. In Jesus Name (God Of Possible) ... K-LOVE is a 501(c)3 and all donations are tax deductible. Employer ID Number: 94-2816342Jeff the killer original story
Definition of a cook
Amazed – Lonestar. Built to Last – Heartland. I Cross My Heart – George Strait. I Keep On Loving You – Reba McEntire. I’d Love You All Over Again – Alan Jackson. Look at Us – Vince Gill. Me And You – Kenny Chesney. Nobody Knows Me Like You – Phil Vassar. Remember When – Alan Jackson. Bakugou explosionCountry Top 50. SONG / ALBUM TITLE. ARTIST. DURATION. Never Wanted To Be That Girl. Carly Pearce & Ashley McBryde • Songs With Friends: Duets & More 2021. Songs With Friends: Duets & More 2021. Carly Pearce & Ashley McBryde. 03m 34sec.>

Fall in Love With 2020's Most Beautiful Country Love Songs, So Far. September 11, 2020 by Sydni Ellis. View On One Page. Photo 1 of 31. ADVERTISEMENT ( ) Start Slideshow. Share This Link Copy ...Top Country Songs Playlist 2022 Hottest Country Songs of the Moment 2022 Country Music Music is life, that's why our hearts have beats! Top Tracks we select based on Music Popularity over Youtube and Radios and also collecting data from Billboard and Charts. If u like our playlist, please save it. This playlist updated weekly so stay with us for more new country hit songs 2022 We will continue ...The country superstar is capping off 2020 with a remarkable career milestone. Gabby Barrett's 4X Platinum debut single, "I Hope," snagged the title of the longest-leading No. 1 by a solo female artist in the Billboard's Hot Country Songs charts history after reigning the top spot for twenty weeks. "Wow, I'm blown away," Barrett said. "This year has been absolutely crazy for all ...As always country music provides us with the soundtrack to our lives, so here are some of the best country lyrics from some contemporary country musicians to express how you feel in a new relationship or even to caption your cute couple's photos with on Instagram! 1. "Somebody's Got Me"- Mitchell Tenpenny. 2. "Redneck Love Song ....